17.10.1700:34 Uhr Fetty Wap - For My Fans Vol.1 Rap320 kbit/s 0 / 0428 Hits VID P2P DDL 0 Kommentare | A Pleasing Melancholy: Works By Dowland & Others (2017) | Documentary








Info

Chronicle of a Death Foretold


6.5
IMDB: 6.5/10 705 votes

Durata: 109 min

Released:

Anno: 08 May 1987

Direttore:

Premi: 3 nominations.

Stato: Released

Paese: Italy, France, Colombia

Cast:




Il maturo dottor Cristof Bedoya scende dal battello che l’ha ricondotto lungo il fiume a uno sperduto villaggio della Colombia, dove ha fatto la sua prima pratica medica, chiamato a dirigerne l’ospedale. L’assalgono i ricordi della giovinezza, quando il ventunenne amico Santiago Nasar, rampollo di una famiglia benestante del paese, venne ucciso a coltellate dai fratelli Vicario, per vendicare l’onore della loro sorella Angela, che, ripudiata subito dopo le nozze dal marito Bayardo San Roman perché non illibata e violentemente pressata dai familiari, si era lasciata sfuggire il nome del giovane colpevole. Sull’onda dei ricordi, Bedoya riesce a ricostruire pezzo per pezzo la cronaca dell’uccisione dell’amico, dall’arrivo dello spavaldo Bayardo, al suo vano corteggiamento di Angela, che lo rifiuta, ai modi strafottenti e alla sfacciata profusione di denaro con cui riesce a convincere la famiglia a concedergliela in sposa, fino alle nozze fiabesche, cui farà seguito il ripudio e la tragica uccisione dell’amico, davanti al passivo fatalismo di quasi tutto il paese, riversato sulla piazza in occasione del passaggio del vescovo. Nessuna prova concreta delle presunte responsabilità di “seduttore” di Santiago affiora dalle ostinate ricerche dell’amico. Frattanto Angela, incredibilmente fedele al marito, continua a scrivergli lettere su lettere per anni, fino al ritorno di lui al paese e alla patetica riconciliazione finale.

Trailer


Upload on Youtube

Info File

Video
ID : 0
Format : MPEG-4 Visual
Format profile : [email protected]
Format settings, BVOP : Yes
Format settings, QPel : No
Format settings, GMC : No warppoints
Format settings, Matrix : Default (H.263)
Muxing mode : Packed bitstream
Codec ID : XVID
Codec ID/Hint : XviD
Duration : 1h 49mn
Bit rate : 1 100 Kbps
Width : 592 pixels
Height : 448 pixels
Display aspect ratio : 4:3
Frame rate : 23.976 fps
Resolution : 24 bits
Colorimetry : 4:2:0
Scan type : Progressive
Bits/(Pixel*Frame) : 0.173
Stream size : 861 MiB (80%)
Writing library : XviD 58

Audio #1 ITALIANO

ID : 1
Format : MPEG Audio
Format version : Version 1
Format profile : Layer 3
Codec ID : 55
Codec ID/Hint : MP3
Duration : 1h 49mn
Bit rate mode : Constant
Bit rate : 128 Kbps
Channel(s) : 2 channels
Sampling rate : 48.0 KHz
Resolution : 16 bits
Stream size : 100 MiB (9%)
Alignment : Split accross interleaves
Interleave, duration : 42 ms (1.00 video frame)
Interleave, preload duration : 500 ms

Immagini

Cronaca di una morte annunciata – F.Rosi 1987, [XviD – Ita Esp Mp3]

Trackers

http://tracker.istole.it:80/
http://tracker.publicbt.com:80/
http://tracker.tntvillage.scambioetico.org:2710/scrape
http://open.demonii.com:1337/scrape
http://tracker.coppersurfer.tk:6969/scrape
http://tracker.openbittorrent.com/scrape