Security | 5 Oct 2015 | Romantic








Info

The Commitments


7.6
IMDB: 7.6/10 26,856 votes

Durata: 118 min

Released:

Anno: 13 Sep 1991

Direttore:

Premi: Nominated for 1 Oscar. Another 10 wins & 8 nominations.

Stato: Released

Paese: Ireland, UK, USA

Cast:




Jimmy Rabbitte, che vive in un quartiere popolare di Dublino, si è messo in testa di organizzare una piccola band. A suo parere, la gente povera e senza lavoro della città ha bisogno di soul. Grazie ad un annuncio sul giornale, Rabbitte comincia a selezionare disoccupati, più o meno talentosi: Dean, Fay, Outspan, l’occhialuto Steven Clifford, Deco il ciccione, Bllly il batterista e Joey “The lips”, un bizzarro e anziano suonatore di tromba. In più, Natalie, Imelda e Bernie, tre vistose e grintose ragazze come trio vocale. Procuratasi l’attrezzatura necessaria, impegnando tutti nelle prove e cominciando a prodursi in pubblico in capannoni e locali popolarissimi, l’entusiasta manager riesce a trasmettere al gruppetto fuoco ed ambizioni. Questa band dilettantesca e provinciale, che sembra lanciata verso il vertice, finisce invece nel fallimento: dissapori, inconcludenza, piccole gelosie e rivalità minano il complesso.

Trailer


Upload on Youtube

Info File

General
Unique ID: 109498828432765685925829092779738990907 (0x5260B50EB09600E08775C6E2B1A3093B)
Complete name: The Commitments (1991) - BDmux 720p x264 - Ita Eng AC3 5.1 - Multisub - Orgazmo.mkv
Format: Matroska
Format version: Version 4 / Version 2
File size: 4.96 GiB
Duration: 1h 57mn
Overall bit rate: 6 017 Kbps
Movie name: The Commitments (Alan Parker, 1991) - Orgazmo
Encoded date: UTC 2016-09-04 08:48:38
Writing application: mkvmerge v6.2.0 ('Promised Land') built on Apr 28 2013 18:50:30
Writing library: libebml v1.3.0 + libmatroska v1.4.0

Video
ID: 1
Format: AVC
Format/Info: Advanced Video Codec
Format profile: [email protected]
Format settings, CABAC: Yes
Format settings, ReFrames: 5 frames
Codec ID: V_MPEG4/ISO/AVC
Duration: 1h 57mn
Bit rate: 5 120 Kbps
Width: 1 280 pixels
Height: 696 pixels
Display aspect ratio: 1.85:1
Frame rate mode: Constant
Frame rate: 23.976 fps
Color space: YUV
Chroma subsampling: 4:2:0
Bit depth: 8 bits
Scan type: Progressive
Bits/(Pixel*Frame): 0.240
Stream size: 4.12 GiB (83%)
Title: The Commitments (Alan Parker, 1991)
Writing library: x264 core 148 r2705 3f5ed56
Encoding settings: cabac=1 / ref=5 / deblock=1:-3:-3 / analyse=0x3:0x113 / me=umh / subme=8 / psy=1 / psy_rd=1.10:0.00 /
mixed_ref=1 / me_range=24 / chroma_me=1 / trellis=1 / 8x8dct=1 / cqm=0 / deadzone=21,11 / fast_pskip=1 / chroma_qp_offset=-2 /
threads=22 / lookahead_threads=3 / sliced_threads=0 / nr=0 / decimate=1 / interlaced=0 / bluray_compat=0 / constrained_intra=0 /
bframes=3 / b_pyramid=2 / b_adapt=2 / b_bias=0 / direct=3 / weightb=1 / open_gop=0 / weightp=2 / keyint=240 / keyint_min=24 /
scenecut=40 / intra_refresh=0 / rc_lookahead=50 / rc=2pass / mbtree=1 / bitrate=5120 / ratetol=1.0 / qcomp=0.60 / qpmin=0 /
qpmax=69 / qpstep=4 / cplxblur=20.0 / qblur=0.5 / ip_ratio=1.40 / aq=3:0.80
Language: English
Default: Yes
Forced: No

Audio #1
ID: 2
Format: AC-3
Format/Info: Audio Coding 3
Mode extension: CM (complete main)
Format settings, Endianness: Big
Codec ID: A_AC3
Duration: 1h 57mn
Bit rate mode: Constant
Bit rate: 448 Kbps
Channel count: 6 channels
Channel positions: Front: L C R, Side: L R, LFE
Sampling rate: 48.0 KHz
Bit depth: 16 bits
Compression mode: Lossy
Stream size: 378 MiB (7%)
Title: Italiano AC3 5.1 448kbps
Language: Italian
Default: Yes

Immagini

The Commitments (1991), [BDmux 720p – H264 – Ita Eng Ac3 5.1 – MultiSub]

Trackers

http://tracker.istole.it:80/
http://tracker.tntvillage.scambioetico.org:2710/scrape
http://tracker.publicbt.com:80/
http://open.demonii.com:1337/scrape
http://tracker.coppersurfer.tk:6969/scrape
http://tracker.openbittorrent.com/scrape